18+ Elizabeth Harvest 2018 UNCENOSRED Mo Torrent Free Download

Seeders : 112   &   Leechers : 397      10-08-2018 (2 months)
18+ Elizabeth Harvest 2018 UNCENOSRED Mo Torrent Download
Added: ago by nehalpuja ***** in Movies   1,020.0 MB   Hits : 38
Info Hash: 6A8FB4F42459FF6BA1A86C52CB7F5BA151CB05AF Download
18+ Elizabeth Harvest 2018 UNCENOSRED Mo Torrent Download

Anonymous and Direct Download movies , software , shows...

Fast Safe Anonymous
movies, software, shows...

Torrent Description



18+ Elizabeth Harvest 2018 UNCENOSRED Movies 720p HDRip x264 5.1 with Sample ☻rDX☻
===============================================================================================

SCREEN SHOTS:



or

http://iphonehosting.eu/2018/8/holiday/1.html

File size : 1 012 MiB
Duration : 1 h 48 min
Overall bit rate : 1 300 kb/s
Movie name : 18+ Elizabeth Harvest 2018 UNCENOSRED Movies 720p HDRip x264 5.1 ☻rDX☻

Video
ID : 2
Format : AVC
Format/Info : Advanced Video Codec
Format profile : [email protected]
Format settings, CABAC : Yes
Format settings, ReFrames : 4 frames
Codec ID : V_MPEG4/ISO/AVC
Duration : 1 h 48 min
Bit rate : 916 kb/s
Width : 1 280 pixels
Height : 532 pixels
Display aspect ratio : 2.40:1
Frame rate mode : Constant
Frame rate : 23.976 (24000/1001) FPS
Color space : YUV
Chroma subsampling : 4:2:0
Bit depth : 8 bits
Scan type : Progressive
Bits/(Pixel*Frame) : 0.056
Stream size : 693 MiB (68%)
Title : ☻rDX☻
Writing library : x264

Audio
ID : 1
Format : AC-3
Format/Info : Audio Coding 3
Mode extension : CM (complete main)
Format settings, Endianness : Big
Codec ID : A_AC3
Duration : 1 h 48 min
Bit rate mode : Constant
Bit rate : 384 kb/s
Channel(s) : 6 channels
Channel positions : Front: L C R, Side: L R, LFE
Sampling rate : 48.0 kHz
Frame rate : 31.250 FPS (1536 spf)
Bit depth : 16 bits
Compression mode : Lossy
Delay relative to video : -21 ms
Stream size : 299 MiB (30%)
Title : ☻rDX☻
Default : Yes
Forced : No



IMDB : https://www.imdb.com/title/tt6852872




Sharing Widget


No Comments For This Torrent . Be The First to Comment

You must Login to Comment . Click Here to Login

Menu 1

Some content in menu 1.

18+ Elizabeth Harvest 2018 UNCENOSRED Movies 720p HDRip x264 5 1 with (Size: 1,020.0 MB)
  18+ Elizabeth Harvest 2018 UNCENOSRED Movies 720p HDRip x264 5 1 with 1,020.0 MB
tracker name
udp://tracker.leechers-paradise.org:6969/announce
udp://zer0day.ch:1337/announce
udp://open.demonii.com:1337/announce
udp://tracker.coppersurfer.tk:6969/announce
udp://exodus.desync.com:6969/announce
µTorrent compatible trackers list

Relative Torrents

Torrent Name Size Age SEED LEECH
My Old Lady 2014 720p BluRay H264 AAC
Posted by    Trige   in   Movies
1.3 GB 3 minutes 648 590
Tamara Drewe 2010 BRRip XviD MP3-XVID
Posted by    Trige   in   Movies
1.4 GB 3 minutes 429 435
Gary and His Demons S01E03 720p WEBRip x64-KOMPOST [eztv]
Posted by    EZTVag   in   TV
181.2 MB 4 minutes 834 423
Gary and His Demons S01E04 720p WEBRip x64-KOMPOST [eztv]
Posted by    EZTVag   in   TV
147.9 MB 4 minutes 63 640
Gary and His Demons S01E05 720p WEBRip x64-KOMPOST [eztv]
Posted by    EZTVag   in   TV
177.2 MB 4 minutes 978 286