7 Hours to Go Hindi (2016) 720p HDRip x2 Torrent Free Download

Seeders : 110   &   Leechers : 294      11-08-2018 (2 months)
7 Hours to Go Hindi (2016) 720p HDRip x2 Torrent Download
Added: ago by shmasti ***** in Movies   850.3 MB   Hits : 32
Info Hash: E816A9E193EC3E9156E624AA9C3CAD05217D851E Download
7 Hours to Go Hindi (2016) 720p HDRip x2 Torrent Download

Anonymous and Direct Download movies , software , shows...

Fast Safe Anonymous
movies, software, shows...

Torrent Description





General
Complete name : 7 Hours to Go Hindi (2016) 720p HDRip x264 AAC by Full4movies.mkv
Format : Matroska
Format version : Version 4 / Version 2
File size : 850 MiB
Duration : 1 h 54 min
Overall bit rate : 1 042 kb/s
Movie name : www.Full4movies.co
Encoded date : UTC 2018-08-09 13:14:12
Writing application : mkvmerge v8.1.0 ('Psychedelic Postcard') 32bit
Writing library : libebml v1.3.1 + libmatroska v1.4.2

Video
ID : 1
Format : AVC
Format/Info : Advanced Video Codec
Format profile : [email protected]
Format settings, CABAC : Yes
Format settings, RefFrames : 10 frames
Codec ID : V_MPEG4/ISO/AVC
Duration : 1 h 54 min
Bit rate : 880 kb/s
Width : 1 280 pixels
Height : 544 pixels
Display aspect ratio : 2.35:1
Frame rate mode : Constant
Frame rate : 23.976 (24000/1001) FPS
Color space : YUV
Chroma subsampling : 4:2:0
Bit depth : 8 bits
Scan type : Progressive
Bits/(Pixel*Frame) : 0.053
Stream size : 718 MiB (84%)
Writing library : x264 core 142 r2479 dd79a61
Language : Hindi
Default : Yes
Forced : No
Color range : Limited
Color primaries : BT.709
Transfer characteristics : BT.709
Matrix coefficients : BT.709

Audio
ID : 2
Format : AAC
Format/Info : Advanced Audio Codec
Format profile : LC
Codec ID : A_AAC
Duration : 1 h 54 min
Bit rate : 160 kb/s
Channel(s) : 2 channels
Channel positions : Front: L R
Sampling rate : 48.0 kHz
Frame rate : 46.875 FPS (1024 SPF)
Compression mode : Lossy
Delay relative to video : -21 ms
Stream size : 130 MiB (15%)
Language : Hindi
Default : Yes
Forced : No

Screen Shoots




Sharing Widget


No Comments For This Torrent . Be The First to Comment

You must Login to Comment . Click Here to Login

Menu 1

Some content in menu 1.

7 Hours to Go Hindi (2016) 720p HDRip x264 AAC by Full4movies (Size: 850.3 MB)
  7 Hours to Go Hindi (2016) 720p HDRip x264 AAC by Full4movies 850.3 MB
tracker name
udp://tracker.leechers-paradise.org:6969/announce
udp://zer0day.ch:1337/announce
udp://open.demonii.com:1337/announce
udp://tracker.coppersurfer.tk:6969/announce
udp://exodus.desync.com:6969/announce
µTorrent compatible trackers list

Relative Torrents

Torrent Name Size Age SEED LEECH
My Old Lady 2014 720p BluRay H264 AAC
Posted by    Trige   in   Movies
1.3 GB 3 minutes 648 590
Gary and His Demons S01E03 720p WEBRip x64-KOMPOST [eztv]
Posted by    EZTVag   in   TV
181.2 MB 4 minutes 834 423
Gary and His Demons S01E04 720p WEBRip x64-KOMPOST [eztv]
Posted by    EZTVag   in   TV
147.9 MB 4 minutes 63 640
Gary and His Demons S01E05 720p WEBRip x64-KOMPOST [eztv]
Posted by    EZTVag   in   TV
177.2 MB 4 minutes 978 286
Gary and His Demons S01E07 720p WEBRip x64-KOMPOST [eztv]
Posted by    EZTVag   in   TV
174.8 MB 4 minutes 579 916