Agatha and the Truth of Murder 2018 HDRi Torrent Free Download

Seeders : 456   &   Leechers : 948      11-02-2019 (6 days)
Agatha and the Truth of Murder 2018 HDRi Torrent Download
Added: ago by LifeLongg ***** in Movies   927.3 MB   Hits : 17
Info Hash: F1DD965296C0DD5064C9D8F6BF19B60F1D479B50 Download
Agatha and the Truth of Murder 2018 HDRi Torrent Download

Anonymous and Direct Download movies , software , shows...

Fast Safe Anonymous
movies, software, shows...
Agatha and the Truth of Murder
N/A   .   92 min   6.5/10
Director : Terry Loane  
Writer: Tom Dalton  
Tags: Agatha  and  the  Truth  of  Murder  

Released:
23 Dec 2018
In 1926, with her personal life in tatters and her writing in crisis, a young Agatha Christie decides to solve a real-life murder.

Torrent Description



Quote:




******************************Thumbnail:**********************



******************************Screenshots:********************

Screenshot 1

Screenshot 2

Screenshot 3

Screenshot 4

Screenshot 5

Screenshot 6

Screenshot 7

Screenshot 8

Screenshot 9

Screenshot 0


******************************************************

Agatha.and.the.Truth.of.Murder.2018.HDRip.XviD.AC3.LLG.mp4
Format : MPEG-4
Format profile : Base Media
Codec ID : isom (isom/iso2/avc1/mp41)
File size : 919 MiB
Duration : 1 h 32 min
Overall bit rate mode : Variable
Overall bit rate : 1 391 kb/s
Writing application : Lavf57.83.100

Video
ID : 1
Format : AVC
Format/Info : Advanced Video Codec
Format profile : [email protected]
Format settings : CABAC / 1 Ref Frames
Format settings, CABAC : Yes
Format settings, RefFrames : 1 frame
Codec ID : avc1
Codec ID/Info : Advanced Video Coding
Duration : 1 h 32 min
Bit rate mode : Variable
Bit rate : 1 196 kb/s
Maximum bit rate : 3 600 kb/s
Width : 720 pixels
Height : 360 pixels
Display aspect ratio : 2.000
Frame rate mode : Constant
Frame rate : 25.000 FPS
Color space : YUV
Chroma subsampling : 4:2:0
Bit depth : 8 bits
Scan type : Progressive
Bits/(Pixel*Frame) : 0.184
Stream size : 790 MiB (86%)
Codec configuration box : avcC

Audio
ID : 2
Format : AC-3
Format/Info : Audio Coding 3
Commercial name : Dolby Digital
Codec ID : ac-3
Duration : 1 h 32 min
Bit rate mode : Constant
Bit rate : 192 kb/s
Channel(s) : 6 channels
Channel layout : L R C LFE Ls Rs
Sampling rate : 48.0 kHz
Frame rate : 31.250 FPS (1536 SPF)
Bit depth : 16 bits
Compression mode : Lossy
Stream size : 127 MiB (14%)
Service kind : Complete Main
Default : Yes
Alternate group : 1



********************************************************





Sharing Widget


No Comments For This Torrent . Be The First to Comment

You must Login to Comment . Click Here to Login

Menu 1

Some content in menu 1.

Agatha and the Truth of Murder 2018 HDRip XviD AC3 LLG (Size: 927.3 MB)
  Agatha and the Truth of Murder 2018 HDRip XviD AC3 LLG 927.3 MB
tracker name
udp://tracker.leechers-paradise.org:6969/announce
udp://zer0day.ch:1337/announce
udp://open.demonii.com:1337/announce
udp://tracker.coppersurfer.tk:6969/announce
udp://exodus.desync.com:6969/announce
µTorrent compatible trackers list

Relative Torrents

Torrent Name Size Age SEED LEECH
Counterpart S02E10 Better Angels 1080p Wbrip x265 EAC3 5 1 Goki [SEV]
Posted by    Goki   in   TV
1.3 GB 1 minute 525 914
Giada Entertains S04E05 Taste of Capri Prty 720p WEBRip x264-CAFFEiNE [eztv]
Posted by    EZTVag   in   TV
605.7 MB 1 minute 967 240
Giada Entertains S04E05 Taste of Capri Prty WEBRip x264-CAFFEiNE [eztv]
Posted by    EZTVag   in   TV
224.6 MB 1 minute 315 349
[Neofolk] Sol Invictus Albums [FLAC,Tracs] [DarkAngie]
Posted by    sisyphus   in   Music
4.2 GB 4 minutes 957 518
Lethal Admirer 2018 HDRip AC3 X264-CMRG[tMovies]
Posted by    EtHD   in   Movies
1.3 GB 13 minutes 868 922