BBC Proms 2018 Prom 33, Brahms - A Germa Torrent Free Download

Seeders : 604   &   Leechers : 183      11-08-2018 (1 week)
BBC Proms 2018 Prom 33, Brahms - A Germa Torrent Download
Added: ago by ElsonRoa ***** in TV   1.4 GB   Hits : 18
Info Hash: 49B00C6AAE22439F24F6C167F4A12EEBE3D41334 Download
BBC Proms 2018 Prom 33, Brahms - A Germa Torrent Download

Anonymous and Direct Download movies , software , shows...

Fast Safe Anonymous
movies, software, shows...
BBC Proms
Music   .   N/A   7.7/10
Director : N/A  
Writer: N/A  
Tags: BBC  Proms  2018  Prom  33,  Brahms  

Released:
13 Jul 2012
N/A

Torrent Description



BBC Proms 2018 Prom 33, Brahms - A German Requiem (540p, soft Eng subs)

Note: This is a 540p version of the broadcast. I will upload the 720p/50fps version soon.

The Rev Richard Coles introduces a performance of Brahms's tender and consoling A German Requiem, inspired by the death of the composer's mother. Richard Farnes conducts the BBC Symphony Orchestra and Chorus, with soloists Golda Schultz, making her Prom debut, and Johan Reuter. The evening starts by marking Thea Musgrave's 90th birthday with her dramatic and mysterious single-movement piece Phoenix Rising.

First broadcast: 10 August 2018
Duration: 100 minutes

Torrent dead? Request reseed at demonoid.pw, 1337x.to or katcr.co - or ask at [email protected]



Media info:-
General
Format : MPEG-4
Format profile : Base Media
Codec ID : isom (isom/iso2/avc1/mp41)
File size : 1.37 GiB
Duration : 1h 42mn
Overall bit rate : 1 925 Kbps
Writing application : Lavf57.83.100

ID : 1
Format : AVC
Format/Info : Advanced Video Codec
Format profile : [email protected]
Format settings, CABAC : Yes
Format settings, ReFrames : 4 frames
Format settings, GOP : M=8, N=96
Codec ID : avc1
Codec ID/Info : Advanced Video Coding
Duration : 1h 42mn
Bit rate : 1 603 Kbps
Width : 960 pixels
Height : 540 pixels
Display aspect ratio : 16:9
Frame rate mode : Constant
Frame rate : 25.000 fps
Color space : YUV
Chroma subsampling : 4:2:0
Bit depth : 8 bits
Scan type : Progressive
Bits/(Pixel*Frame) : 0.124
Stream size : 1.14 GiB (83%)
Encoded date : UTC 1904-01-01 00:00:00
Tagged date : UTC 1904-01-01 00:00:00
Color range : Limited
Color primaries : BT.709
Transfer characteristics : BT.709
Matrix coefficients : BT.709

Audio
ID : 2
Format : AAC
Format/Info : Advanced Audio Codec
Format profile : LC
Codec ID : 40
Duration : 1h 42mn
Bit rate mode : Constant
Bit rate : 317 Kbps
Channel(s) : 2 channels
Channel positions : Front: L R
Sampling rate : 48.0 KHz
Frame rate : 46.875 fps (1024 spf)
Compression mode : Lossy
Stream size : 232 MiB (16%)
Language : English




Sharing Widget


No Comments For This Torrent . Be The First to Comment

You must Login to Comment . Click Here to Login

Menu 1

Some content in menu 1.

BBC Proms 2018 Prom 33, Brahms - A German Requiem (540p, soft Eng subs (Size: 1.4 GB)
  BBC Proms 2018 Prom 33, Brahms - A German Requiem (540p, soft Eng subs 1.4 GB
tracker name
udp://tracker.leechers-paradise.org:6969/announce
udp://zer0day.ch:1337/announce
udp://open.demonii.com:1337/announce
udp://tracker.coppersurfer.tk:6969/announce
udp://exodus.desync.com:6969/announce
µTorrent compatible trackers list

Relative Torrents

Torrent Name Size Age SEED LEECH
Beauty and the Dogs 2017 INTERNAL BDRip 264-DEPTH[TGx]
Posted by    mazemaze16   in   Movies
518.1 MB 1 minute 259 115
Mile 22 2018 720p
Posted by    servano1979   in   Movies
2.4 GB 1 minute 561 234
18+ Snapshots 2018 UNCENSORED Movies 720 HDRip x264 AAC with Sample ☻rDX☻
Posted by    nehalpuja   in   Movies
843.1 MB 1 minute 332 637
Avengers Infinity War 2018 720p BluRay x64 Dual Audio [Hindi DD 5 1 - English 2
Posted by    moviezworldz   in   Movies
1.5 GB 1 minute 36 579
What Still Remains (2018) [WEBRip] [1080] [YTS] [YIFY]
Posted by    YTSAGx   in   Movies
1.5 GB 1 minute 878 687