Hotel Artemis 2018 720p HDCAM X264 [MW] Torrent Free Download

Seeders : 891   &   Leechers : 364      11-08-2018 (4 months)
Hotel Artemis 2018 720p HDCAM X264 [MW] Torrent Download
Added: ago by moviezworldz ***** in Movies   1,007.4 MB   Hits : 53
Info Hash: A50268736B79FA50905B4E8E455A42288C69B088 Download
Hotel Artemis 2018 720p HDCAM X264 [MW] Torrent Download

Anonymous and Direct Download movies , software , shows...

Fast Safe Anonymous
movies, software, shows...
Hotel Artemis
Action /Crime /Drama /Sci-Fi /Thriller  .   94 min   6.1/10
Director : Drew Pearce  
Writer: Drew Pearce  
Tags: Hotel  Artemis  2018  720p  HDCAM  X264  

Released:
08 Jun 2018
Set in riot-torn, near-future Los Angeles, 'Hotel Artemis' follows the Nurse, who runs a secret, members-only emergency room for criminals.

Torrent Description







General
Format : Matroska
Format version : Version 4 / Version 2
File size : 1 007 MiB
Duration : 1 h 26 min
Overall bit rate : 1 630 kb/s

Video
ID : 1
Format : AVC
Format/Info : Advanced Video Codec
Format profile : [email protected]
Format settings : CABAC / 4 Ref Frames
Format settings, CABAC : Yes
Format settings, RefFrames : 4 frames
Codec ID : V_MPEG4/ISO/AVC
Duration : 1 h 26 min
Bit rate : 1 500 kb/s
Width : 1 248 pixels
Height : 512 pixels
Display aspect ratio : 2.40:1
Frame rate mode : Constant
Frame rate : 29.970 (30000/1001) FPS
Color space : YUV
Chroma subsampling : 4:2:0
Bit depth : 8 bits
Scan type : Progressive
Bits/(Pixel*Frame) : 0.078
Stream size : 927 MiB (92%)
Writing library : x264 core 155 r2901 7d0ff22
Default : Yes
Forced : No

Audio
ID : 2
Format : AAC
Format/Info : Advanced Audio Codec
Format profile : LC
Codec ID : A_AAC-2
Duration : 1 h 26 min
Bit rate : 128 kb/s
Channel(s) : 2 channels
Channel positions : Front: L R
Sampling rate : 48.0 kHz
Frame rate : 46.875 FPS (1024 SPF)
Compression mode : Lossy
Stream size : 79.4 MiB (8%)
Default : Yes
Forced : No


Click To Enlarge Image











Sharing Widget


No Comments For This Torrent . Be The First to Comment

You must Login to Comment . Click Here to Login

Menu 1

Some content in menu 1.

Hotel Artemis 2018 720p HDCAM X264 [MW] (Size: 1,007.4 MB)
  Hotel Artemis 2018 720p HDCAM X264 [MW] 1,007.4 MB
tracker name
udp://tracker.leechers-paradise.org:6969/announce
udp://zer0day.ch:1337/announce
udp://open.demonii.com:1337/announce
udp://tracker.coppersurfer.tk:6969/announce
udp://exodus.desync.com:6969/announce
µTorrent compatible trackers list

Relative Torrents

Torrent Name Size Age SEED LEECH
Creed 2 2018 NEW 720p HDCAM V 2-1XBET
Posted by    Silmarillion   in   Movies
2.4 GB 5 minutes 621 135
Venom 2018 1080p BluRay REMUX AVC DTS-HDMA TrueHD 7 1 Atmos-FGT
Posted by    Trige   in   Movies
35.4 GB 5 minutes 576 873
90 Day Fiance S06E09 No Way Outready to un 1080p WEB-DL AAC2 0 x264-BTN
Posted by    Trige   in   TV
3.0 GB 14 minutes 899 695
The Flash S05E09 WEBRip x264-ION10
Posted by    Trige   in   TV
409.3 MB 19 minutes 753 528
The Flash 2014 S05E09 Elseworlds Part 1 080p AMZN WEBRip DDP5 1 x264-NTb
Posted by    Trige   in   TV
2.8 GB 19 minutes 170 613