I Kill Giants 2017 Movies 720p BluRay x2 Torrent Free Download

Seeders : 842   &   Leechers : 364      16-05-2018 (3 months)
I Kill Giants 2017 Movies 720p BluRay x2 Torrent Download
Added: ago by nehalpuja ***** in Movies   1.0 GB   Hits : 23
Info Hash: 5E366987453B65658E13101301C4BC14C015FA1A Download
I Kill Giants 2017 Movies 720p BluRay x2 Torrent Download

Anonymous and Direct Download movies , software , shows...

Fast Safe Anonymous
movies, software, shows...
I Kill Giants
Drama /Fantasy /Thriller  .   106 min   6.3/10
Director : Anders Walter  
Tags: I  Kill  Giants  2017  Movies  720p  

Released:
23 Mar 2018
Barbara Thorson struggles through life by escaping into a fantasy life of magic and monsters.

Torrent Description



I Kill Giants 2017 Movies 720p BluRay x264 5.1 with Sample ☻rDX☻
===============================================================================================

SCREEN SHOTS:



or

http://iphonehosting.eu/2018/5/discount/1.html

File size : 1.02 GiB
Duration : 1 h 46 min
Overall bit rate : 1 377 kb/s
Movie name : I Kill Giants 2017 Movies 720p BluRay x264 5.1 ☻rDX☻

Video
ID : 2
Format : AVC
Format/Info : Advanced Video Codec
Format profile : [email protected]
Format settings, CABAC : Yes
Format settings, ReFrames : 4 frames
Codec ID : V_MPEG4/ISO/AVC
Duration : 1 h 46 min
Bit rate : 930 kb/s
Width : 1 280 pixels
Height : 536 pixels
Display aspect ratio : 2.40:1
Frame rate mode : Constant
Frame rate : 23.976 (24000/1001) FPS
Color space : YUV
Chroma subsampling : 4:2:0
Bit depth : 8 bits
Scan type : Progressive
Bits/(Pixel*Frame) : 0.057
Stream size : 686 MiB (65%)
Title : ☻rDX☻
Writing library : x264

Audio
ID : 1
Format : AC-3
Format/Info : Audio Coding 3
Mode extension : CM (complete main)
Format settings, Endianness : Big
Codec ID : A_AC3
Duration : 1 h 46 min
Bit rate mode : Constant
Bit rate : 448 kb/s
Channel(s) : 6 channels
Channel positions : Front: L C R, Side: L R, LFE
Sampling rate : 48.0 kHz
Frame rate : 31.250 FPS (1536 spf)
Bit depth : 16 bits
Compression mode : Lossy
Delay relative to video : -21 ms
Stream size : 341 MiB (33%)
Title : ☻rDX☻
Language : English
Default : No
Forced : No



IMDB : https://www.imdb.com/title/tt4547194




Sharing Widget


No Comments For This Torrent . Be The First to Comment

You must Login to Comment . Click Here to Login

Menu 1

Some content in menu 1.

I Kill Giants 2017 Movies 720p BluRay x264 5 1 with Sample ☻rDX☻ (Size: 1.0 GB)
  I Kill Giants 2017 Movies 720p BluRay x264 5 1 with Sample ☻rDX☻ 1.0 GB
tracker name
udp://tracker.leechers-paradise.org:6969/announce
udp://zer0day.ch:1337/announce
udp://open.demonii.com:1337/announce
udp://tracker.coppersurfer.tk:6969/announce
udp://exodus.desync.com:6969/announce
µTorrent compatible trackers list

Relative Torrents

Torrent Name Size Age SEED LEECH
EditMonkey v1 0 for After Effects (MacOS
Posted by    macapps   in   Applications
426.9 KB 1 minute 973 185
Lighten PDF Converter OCR 6 1 1 + Keygen[CracksMind]
Posted by    cracksmind   in   Applications
48.5 MB 1 minute 674 490
DIL (1990) WEB-HD 1080p HEVC HIN+RUS
Posted by    registoni   in   Movies
2.8 GB 5 minutes 874 312
The Shining 1980 WS DVDRip XviD-FRAGMENT
Posted by    hotpena   in   Movies
1.4 GB 5 minutes 691 228
FXhome Ignite Pro 3 0 8001 10801 Pre-Craked [CracksMind]
Posted by    cracksmind   in   Applications
43.4 MB 6 minutes 920 595