Kalakattam (2016) 720p Hindi Dubbed HDRi Torrent Free Download

Seeders : 493   &   Leechers : 885      11-08-2018 (2 months)
Kalakattam (2016) 720p Hindi Dubbed HDRi Torrent Download
Added: ago by shmasti ***** in Movies   1.1 GB   Hits : 29
Info Hash: BE3D060374E45D2DF37E13C2CEB72C2E3C419691 Download
Kalakattam (2016) 720p Hindi Dubbed HDRi Torrent Download

Anonymous and Direct Download movies , software , shows...

Fast Safe Anonymous
movies, software, shows...

Torrent Description





General
Complete name : Kalakattam (2016) 720p Hindi Dubbed HDRip x264 AC3 by Full4movies.mkv
Format : Matroska
Format version : Version 4 / Version 2
File size : 1.05 GiB
Duration : 2 h 6 min
Overall bit rate : 1 194 kb/s
Encoded date : UTC 2018-08-10 07:37:22
Writing application : mkvmerge v8.1.0 ('Psychedelic Postcard') 32bit
Writing library : libebml v1.3.1 + libmatroska v1.4.2
Cover : Yes
Attachments : Covers.jpg

Video
ID : 1
Format : AVC
Format/Info : Advanced Video Codec
Format profile : [email protected]
Format settings, CABAC : Yes
Format settings, RefFrames : 3 frames
Codec ID : V_MPEG4/ISO/AVC
Duration : 2 h 6 min
Bit rate : 1 000 kb/s
Width : 1 280 pixels
Height : 544 pixels
Display aspect ratio : 2.35:1
Frame rate mode : Constant
Frame rate : 24.000 FPS
Color space : YUV
Chroma subsampling : 4:2:0
Bit depth : 8 bits
Scan type : Progressive
Bits/(Pixel*Frame) : 0.060
Stream size : 903 MiB (84%)
Writing library : x264 core 79
Language : Tamil
Default : Yes
Forced : No
Color range : Limited
Color primaries : BT.709
Transfer characteristics : BT.709
Matrix coefficients : BT.709

Audio
ID : 2
Format : AC-3
Format/Info : Audio Coding 3
Mode : Dolby Digital
Format settings, Endianness : Big
Codec ID : A_AC3
Duration : 2 h 6 min
Bit rate mode : Constant
Bit rate : 192 kb/s
Channel(s) : 2 channels
Channel positions : Front: L R
Sampling rate : 48.0 kHz
Frame rate : 31.250 FPS (1536 SPF)
Bit depth : 16 bits
Compression mode : Lossy
Stream size : 173 MiB (16%)
Title : -=!Dr.STAR!=-
Language : Hindi
Service kind : Complete Main
Default : Yes
Forced : No

Screen Shoots




Sharing Widget


No Comments For This Torrent . Be The First to Comment

You must Login to Comment . Click Here to Login

Menu 1

Some content in menu 1.

Kalakattam (2016) 720p Hindi Dubbed HDRip x264 AC3 by Full4movies (Size: 1.1 GB)
  Kalakattam (2016) 720p Hindi Dubbed HDRip x264 AC3 by Full4movies 1.1 GB
tracker name
udp://tracker.leechers-paradise.org:6969/announce
udp://zer0day.ch:1337/announce
udp://open.demonii.com:1337/announce
udp://tracker.coppersurfer.tk:6969/announce
udp://exodus.desync.com:6969/announce
µTorrent compatible trackers list

Relative Torrents

Torrent Name Size Age SEED LEECH
The Rachel Maddow Show 2018 10 18 720p MBC WEB-DL AAC2 0 x264-BTW [eztv]
Posted by    EZTVag   in   TV
852.8 MB 1 minute 80 151
Hellraiser Deader 2005 1080p BluRay x264SADPANDA
Posted by    Trige   in   Movies
6.6 GB 2 minutes 170 395
Dead Man Running 2009 1080p BluRay x264-AF
Posted by    Trige   in   Movies
6.5 GB 5 minutes 856 218
Burke and Hare 2010 1080p BluRay x264-AVHD
Posted by    Trige   in   Movies
6.6 GB 5 minutes 759 530
The Book Of Daniel 2013 1080p BluRay x26-FiCO
Posted by    Trige   in   Movies
5.5 GB 5 minutes 93 907