Kick Ass 2 (2013) Hindi Dubbed Movie HDR Torrent Free Download

Seeders : 182   &   Leechers : 134      12-04-2018 (4 months)
Kick Ass 2 (2013) Hindi Dubbed Movie HDR Torrent Download
Added: ago by shmasti ***** in Movies   1.1 GB   Hits : 38
Info Hash: C9FEDF2F2B9FCF4824E74D18A631A4B61DD5A72B Download
Kick Ass 2 (2013) Hindi Dubbed Movie HDR Torrent Download

Anonymous and Direct Download movies , software , shows...

Fast Safe Anonymous
movies, software, shows...
Kick Ass Girls
Action /Comedy /Crime  .   97 min   4.1/10
Starring : Chrissie Chau  Hidy Yu  Dada Lo  Tien You Chui  
Director : Goo-Bi GC  
Tags: Kick  Ass  2  (2013)  Hindi  Dubbed  

Released:
14 Nov 2013
The story of a group of promiscious yet level-headed women who fall into troubles in the fighting world.

Torrent Description





General
Complete name                  : Subedar Joginder Singh (2018) Punjabi Movie HDRip x264 AC3 by Full4movies.mkv
Format                         : Matroska
Format version                 : Version 4 / Version 2
File size                      : 340 MiB
Duration                       : 2 h 12 min
Overall bit rate               : 359 kb/s
Movie name                     : Subedar Joginder Singh (2018)
Encoded date                   : UTC 2018-04-12 16:46:12
Writing application            : mkvmerge v8.1.0 ('Psychedelic Postcard') 32bit
Writing library                : libebml v1.3.1 + libmatroska v1.4.2

Video
ID                             : 1
Format                         : AVC
Format/Info                    : Advanced Video Codec
Format profile                 : [email protected]
Format settings, CABAC         : Yes
Format settings, RefFrames     : 5 frames
Codec ID                       : V_MPEG4/ISO/AVC
Duration                       : 2 h 12 min
Bit rate                       : 300 kb/s
Width                          : 648 pixels
Height                         : 288 pixels
Display aspect ratio           : 2.25:1
Frame rate mode                : Constant
Frame rate                     : 29.970 (30000/1001) FPS
Color space                    : YUV
Chroma subsampling             : 4:2:0
Bit depth                      : 8 bits
Scan type                      : Progressive
Bits/(Pixel*Frame)             : 0.054
Stream size                    : 284 MiB (84%)
Writing library                : x264 core 148 r2708 86b7198
Language                       : Panjabi
Default                        : Yes
Forced                         : No
Color range                    : Limited
Color primaries                : BT.601 NTSC
Transfer characteristics       : BT.709
Matrix coefficients            : BT.601

Audio
ID                             : 2
Format                         : AAC
Format/Info                    : Advanced Audio Codec
Format profile                 : LC
Codec ID                       : A_AAC
Duration                       : 2 h 12 min
Bit rate                       : 56.5 kb/s
Channel(s)                     : 2 channels
Channel positions              : Front: L R
Sampling rate                  : 44.1 kHz
Frame rate                     : 43.066 FPS (1024 SPF)
Compression mode               : Lossy
Stream size                    : 53.6 MiB (16%)
Language                       : Panjabi
Default                        : Yes
Forced                         : No

Screen Shoots




Sharing Widget


No Comments For This Torrent . Be The First to Comment

You must Login to Comment . Click Here to Login

Menu 1

Some content in menu 1.

Kick Ass 2 (2013) Hindi Dubbed Movie HDRip x264 AC3 by Full4movies (Size: 1.1 GB)
  Kick Ass 2 (2013) Hindi Dubbed Movie HDRip x264 AC3 by Full4movies 1.1 GB
tracker name
udp://tracker.leechers-paradise.org:6969/announce
udp://zer0day.ch:1337/announce
udp://open.demonii.com:1337/announce
udp://tracker.coppersurfer.tk:6969/announce
udp://exodus.desync.com:6969/announce
µTorrent compatible trackers list

Relative Torrents

Torrent Name Size Age SEED LEECH
Castle Rock S01E06 720p WEBRip x264-METCN[TGx]
Posted by    mazemaze16   in   TV
719.2 MB 6 minutes 574 744
Miz and Mrs S01E04 WEBRip h264-TJ [TJET]
Posted by    EZZT   in   TV
238.0 MB 6 minutes 668 351
Castle Rock S01E06 720p WEBRip x264-METCN[ettv]
Posted by    EtHD   in   TV
717.0 MB 6 minutes 701 945
Castle Rock S01E06 720p WEBRip x264-METCN[eztv]
Posted by    EZTVag   in   TV
717.0 MB 6 minutes 662 541
Chumbawamba - Studio Albums (1986 to 201) - Mp3
Posted by    TruthPhoenix   in   Music
1.1 GB 10 minutes 605 446