Kick Ass 2013 720p Esub BluRay Dual Aud Torrent Free Download

Seeders : 960   &   Leechers : 295      11-04-2018 (4 months)
Kick Ass 2013 720p Esub BluRay Dual Aud Torrent Download
Added: ago by PENDUDESI ***** in Movies   645.1 MB   Hits : 33
Info Hash: 5EF48F45991D26B26F79610487AE0997B49FCB2D Download
Kick Ass 2013 720p Esub BluRay Dual Aud Torrent Download

Anonymous and Direct Download movies , software , shows...

Fast Safe Anonymous
movies, software, shows...
Kick Ass Girls
Action /Comedy /Crime  .   97 min   4.1/10
Starring : Chrissie Chau  Hidy Yu  Dada Lo  Tien You Chui  
Director : Goo-Bi GC  
Tags: Kick  Ass  2013  720p  Esub  BluRay  

Released:
14 Nov 2013
The story of a group of promiscious yet level-headed women who fall into troubles in the fighting world.

Torrent Description




Format : Matroska
Format version : Version 4 / Version 2
File size : 645 MiB
Duration : 1 h 43 min
Overall bit rate : 876 kb/s
Movie name : Kick Ass 2013 GOPISAHI

Video
Format : AVC
Codec ID : V_MPEG4/ISO/AVC
Duration : 1 h 43 min
Bit rate : 700 kb/s
Width : 1 280 pixels
Height : 536 pixels
Display aspect ratio : 2.40:1
Frame rate mode : Constant
Frame rate : 23.976 (24000/1001) FPS
Stream size : 515 MiB (80%)
Title : GOPISAHI
Writing library : x264 core 155 r2893 b00bcaf


Audio #1
Format : AAC
Duration : 1 h 43 min
Bit rate : 85.6 kb/s
Channel(s) : 6 channels
Channel positions : Front: L C R, Side: L R, LFE
Sampling rate : 44.1 kHz
Frame rate : 43.066 FPS (1024 SPF)
Compression mode : Lossy
Stream size : 63.1 MiB (10%)
Title : GOPISAHI
Language : English

Audio #2
Format : AAC
Duration : 1 h 42 min
Bit rate : 87.7 kb/s
Channel(s) : 6 channels
Channel positions : Front: L C R, Side: L R, LFE
Sampling rate : 44.1 kHz
Frame rate : 43.066 FPS (1024 SPF)
Compression mode : Lossy
Delay relative to video : 522 ms
Stream size : 64.6 MiB (10%)
Title : GOPISAHI
Language : Hindi

Text
Language : English





Sharing Widget


No Comments For This Torrent . Be The First to Comment

You must Login to Comment . Click Here to Login

Menu 1

Some content in menu 1.

Kick Ass 2013 720p Esub BluRay Dual Audio English Hindi GOPISAHI (Size: 645.1 MB)
  Kick Ass 2013 720p Esub BluRay Dual Audio English Hindi GOPISAHI 645.1 MB
tracker name
udp://tracker.leechers-paradise.org:6969/announce
udp://zer0day.ch:1337/announce
udp://open.demonii.com:1337/announce
udp://tracker.coppersurfer.tk:6969/announce
udp://exodus.desync.com:6969/announce
µTorrent compatible trackers list

Relative Torrents

Torrent Name Size Age SEED LEECH
ShadowSide - CorePack
Posted by    emadmoner   in   Games
4.9 GB 3 minutes 749 946
The Guardian Angel (2018) [WEBRip] [1080] [YTS] [YIFY]
Posted by    YTSAGx   in   Movies
1.6 GB 7 minutes 909 359
Benched 2018 1080p WEB-DL DD5 1 H264-FGTEtHD]
Posted by    EtHD   in   Movies
3.8 GB 7 minutes 259 812
Satans Slaves 2017 720p BrRip x265 HEVCBy com mkv
Posted by    g3m696   in   Movies
200.4 MB 7 minutes 894 834
Breaking And Exiting 2018 1080p WEB-DL D5 1 H264-FGT[EtHD]
Posted by    EtHD   in   Movies
2.7 GB 7 minutes 287 704