Maya The Bee The Honey Games 2018 720p B Torrent Free Download

Seeders : 605   &   Leechers : 864      16-05-2018 (3 months)
Maya The Bee The Honey Games 2018 720p B Torrent Download
Added: ago by lyrical2010 ***** in Movies   1.6 GB   Hits : 30
Info Hash: 88F7349AEA2FCF359BB1A17A8C085967F862D85D Download
Maya The Bee The Honey Games 2018 720p B Torrent Download

Anonymous and Direct Download movies , software , shows...

Fast Safe Anonymous
movies, software, shows...
Maya the Bee: The Honey Games
Animation /Adventure /Comedy  .   85 min   5.7/10
Tags: Maya  The  Bee  The  Honey  Games  

Released:
27 Apr 2018
When an overenthusiastic Maya accidentally embarrasses the Empress of Buzztropolis, she is forced to unite with a team of misfit bugs and compete in the Honey Games for a chance to save her hive.

Torrent Description





Maya.The.Bee.The.Honey.Games.2018.720p.BluRay.x264.AC3-RiPRG

When an overenthusiastic Maya accidentally embarrasses the Empress of Buzztropolis, she is forced to unite with a team of misfit bugs and compete in the Honey Games for a chance to save her hive.

https://www.imdb.com/title/tt6685596/

General

Format : Matroska
Format version : Version 4 / Version 2
File size : 1.84 GiB
Duration : 1h 36mn
Overall bit rate : 2 734 Kbps
Movie name : RiPRG

VideoGeneral

Format : Matroska
Format version : Version 4 / Version 2
File size : 1.61 GiB
Duration : 1h 24mn
Overall bit rate : 2 718 Kbps
Movie name : RiPRG

Video

Format : AVC
Format/Info : Advanced Video Codec
Format profile : [email protected]
Format settings, CABAC : Yes
Format settings, ReFrames : 4 frames
Codec ID : V_MPEG4/ISO/AVC
Duration : 1h 24mn
Bit rate : 2 500 Kbps
Width : 1 280 pixels
Height : 696 pixels
Display aspect ratio : 1.85:1
Frame rate mode : Constant
Frame rate : 23.976 fps
Color space : YUV
Chroma subsampling : 4:2:0
Bit depth : 8 bits
Scan type : Progressive
Bits/(Pixel*Frame) : 0.117
Stream size : 1.45 GiB (90%)
Writing library : x264 core 148
Default : Yes
Forced : No
Color primaries : BT.709
Transfer characteristics : BT.709
Matrix coefficients : BT.709

Audio

Format : AC-3
Format/Info : Audio Coding 3
Mode extension : CM (complete main)
Format settings, Endianness : Big
Codec ID : A_AC3
Duration : 1h 24mn
Bit rate mode : Constant
Bit rate : 224 Kbps
Channel(s) : 6 channels
Channel positions : Front: L C R, Side: L R, LFE
Sampling rate : 48.0 KHz
Bit depth : 16 bits
Compression mode : Lossy
Delay relative to video : -5ms
Stream size : 136 MiB (8%)
Title : Surround
Language : English
Default : Yes
Forced : No





Sharing Widget


No Comments For This Torrent . Be The First to Comment

You must Login to Comment . Click Here to Login

Menu 1

Some content in menu 1.

Maya The Bee The Honey Games 2018 720p BluRay x264 AC3-RiPRG (Size: 1.6 GB)
  Maya The Bee The Honey Games 2018 720p BluRay x264 AC3-RiPRG 1.6 GB
tracker name
udp://tracker.leechers-paradise.org:6969/announce
udp://zer0day.ch:1337/announce
udp://open.demonii.com:1337/announce
udp://tracker.coppersurfer.tk:6969/announce
udp://exodus.desync.com:6969/announce
µTorrent compatible trackers list

Relative Torrents

Torrent Name Size Age SEED LEECH
Lodge 49 S01 (2018) 720p WEB-DL [Hindi +English] Dual Audio x264 ESubs - Katmov
Posted by    Phenomenal   in   Movies
3.8 GB 17 minutes 787 383
Heaven Is for Real (2014) Dual Audio 720 BluRay x264 [Hindi ] ESubs
Posted by    ali90swl   in   Movies
770.3 MB 29 minutes 335 348
The Guardian Angel 2018 720p WEB-HD 750 B - iExTV
Posted by    amarK   in   Movies
751.7 MB 32 minutes 159 225
Bhavesh Joshi Superhero (2018) 720p WEBRp Hindi x264 AC3 Encoded By-RishiBhai[R
Posted by    RishiBhai   in   Movies
2.2 GB 47 minutes 28 280
Saajan (1991) 720p Hindi DVDRip x264 AAC1 4 GB
Posted by    rock3   in   Movies
1.5 GB 53 minutes 612 734