Polar 2019 1080p NF WEB-DL DD 5 1 x264 [ Torrent Free Download

Seeders : 94   &   Leechers : 818      11-02-2019 (6 days)
Polar 2019 1080p NF WEB-DL DD 5 1 x264 [ Torrent Download
Added: ago by moviezworldz ***** in Movies   1.9 GB   Hits : 20
Info Hash: 18181DA5C46B47FA0CF7841134415B7C94C2BDC0 Download
Polar 2019 1080p NF WEB-DL DD 5 1 x264 [ Torrent Download

Anonymous and Direct Download movies , software , shows...

Fast Safe Anonymous
movies, software, shows...
Polar
Action /Crime  .   118 min   6.3/10
Director : Jonas Åkerlund  
Tags: Polar  2019  1080p  NF  WEB-DL  DD  

Released:
25 Jan 2019
The world's top assassin, Duncan Vizla, is settling into retirement when his former employer marks him as a liability to the firm. Against his will, he finds himself back in the game going head to head with an army of younger killers.

Torrent Description







General
Format                                   : Matroska
Format version                           : Version 4
File size                                : 1.91 GiB
Duration                                 : 1 h 58 min
Overall bit rate                         : 2 303 kb/s

Video
ID                                       : 1
Format                                   : AVC
Format/Info                              : Advanced Video Codec
Format profile                           : [email protected]
Format settings                          : CABAC / 4 Ref Frames
Format settings, CABAC                   : Yes
Format settings, RefFrames               : 4 frames
Codec ID                                 : V_MPEG4/ISO/AVC
Duration                                 : 1 h 58 min
Bit rate                                 : 2 000 kb/s
Width                                    : 1 920 pixels
Height                                   : 960 pixels
Display aspect ratio                     : 2.000
Frame rate mode                          : Constant
Frame rate                               : 23.976 (24000/1001) FPS
Color space                              : YUV
Chroma subsampling                       : 4:2:0
Bit depth                                : 8 bits
Scan type                                : Progressive
Bits/(Pixel*Frame)                       : 0.045
Stream size                              : 1.59 GiB (83%)
Writing library                          : x264 core 157 r2935 545de2f

Audio
ID                                       : 2
Format                                   : AC-3
Format/Info                              : Audio Coding 3
Commercial name                          : Dolby Digital
Codec ID                                 : A_AC3
Duration                                 : 1 h 58 min
Bit rate mode                            : Constant
Bit rate                                 : 384 kb/s
Channel(s)                               : 6 channels
Channel layout                           : L R C LFE Ls Rs
Sampling rate                            : 48.0 kHz
Frame rate                               : 31.250 FPS (1536 SPF)
Bit depth                                : 16 bits
Compression mode                         : Lossy
Stream size                              : 327 MiB (17%)
Language                                 : English
Service kind                             : Complete Main
Default                                  : Yes
Forced                                   : No


Click To View Image











Sharing Widget


No Comments For This Torrent . Be The First to Comment

You must Login to Comment . Click Here to Login

Menu 1

Some content in menu 1.

Polar 2019 1080p NF WEB-DL DD 5 1 x264 [MW] (Size: 1.9 GB)
  Polar 2019 1080p NF WEB-DL DD 5 1 x264 [MW] 1.9 GB
tracker name
udp://tracker.leechers-paradise.org:6969/announce
udp://zer0day.ch:1337/announce
udp://open.demonii.com:1337/announce
udp://tracker.coppersurfer.tk:6969/announce
udp://exodus.desync.com:6969/announce
µTorrent compatible trackers list

Relative Torrents

Torrent Name Size Age SEED LEECH
We Bought a Zoo (2011 ITA/ENG) [1080p x25] [Paso77]
Posted by    paso77   in   Movies
4.7 GB 7 seconds 701 421
The Gifted S02E14 calaMity 1080p WEB-DL D5 1 H 264-LAZY[TGx]
Posted by    mazemaze16   in   TV
1.7 GB 5 minutes 30 896
Loch Ness (1996) [WEBRip] [720p] [YTS] [IFY]
Posted by    YTSAGx   in   Movies
871.6 MB 6 minutes 349 211
The Nutcracker and the Four Realm-Lo schaccianoci e i quattro Regni (2018) 1080
Posted by    BaMax71   in   Movies
2.8 GB 6 minutes 248 473
Lethal Admirer 2018 HDRip XviD AC3-EVO[Tx]
Posted by    mazemaze16   in   Movies
1.3 GB 6 minutes 759 159