[RE-UP] True Blood (2008) Season 06 S06 Torrent Free Download

Seeders : 104   &   Leechers : 144      11-08-2018 (1 week)
[RE-UP] True Blood (2008) Season 06 S06 Torrent Download
Added: ago by UTRCorp ***** in TV   7.8 GB   Hits : 18
Info Hash: 858B23DC64B97785EC78287AB07E1C0AE8E46D7F Download
[RE-UP] True Blood (2008) Season 06 S06 Torrent Download

Anonymous and Direct Download movies , software , shows...

Fast Safe Anonymous
movies, software, shows...

Torrent Description










Media Information

Media Information


Code:

General
Format                                   : Matroska
Format version                           : Version 4 / Version 2
File size                                : 715 MiB
Duration                                 : 52 min 5 s
Overall bit rate                         : 1 920 kb/s
Movie name                               : True Blood Season 6 Disc 1
Encoded date                             : UTC 2017-02-10 15:22:01
Writing application                      : mkvmerge v9.2.0 ('Photograph') 64bit
Writing library                          : libebml v1.3.3 + libmatroska v1.4.4

Video
ID                                       : 1
Format                                   : HEVC
Format/Info                              : High Efficiency Video Coding
Format profile                           : Main [email protected]@Main
Codec ID                                 : V_MPEGH/ISO/HEVC
Duration                                 : 52 min 5 s
Bit rate                                 : 1 501 kb/s
Width                                    : 1 920 pixels
Height                                   : 1 080 pixels
Display aspect ratio                     : 16:9
Frame rate mode                          : Constant
Frame rate                               : 23.976 (24000/1001) FPS
Color space                              : YUV
Chroma subsampling                       : 4:2:0
Bit depth                                : 10 bits
Bits/(Pixel*Frame)                       : 0.030
Stream size                              : 559 MiB (78%)
Writing library                          : x265 2.0+54-e5ca9b210223:[Windows][MSVC 1900][64 bit] 10bit
Encoding settings                        : wpp / ctu=64 / min-cu-size=8 / max-tu-size=32 / tu-intra-depth=1 / tu-inter-depth=1 / me=1 / subme=2 / merange=57 / no-rect / no-amp / max-merge=2 / temporal-mvp / early-skip / rskip / rdpenalty=0 / no-tskip / no-tskip-fast / strong-intra-smoothing / no-lossless / no-cu-lossless / no-constrained-intra / fast-intra / open-gop / no-temporal-layers / interlace=0 / keyint=250 / min-keyint=23 / scenecut=40 / rc-lookahead=20 / lookahead-slices=6 / bframes=4 / bframe-bias=0 / b-adapt=2 / ref=3 / limit-refs=3 / no-limit-modes / weightp / no-weightb / aq-mode=3 / qg-size=32 / aq-strength=1.00 / cbqpoffs=0 / crqpoffs=0 / rd=3 / psy-rd=0.00 / rdoq-level=0 / psy-rdoq=0.00 / log2-max-poc-lsb=8 / no-rd-refine / signhide / deblock=0:0 / sao / no-sao-non-deblock / b-pyramid / cutree / no-intra-refresh / rc=2 / pass / bitrate=1500 / qcomp=0.60 / qpmin=0 / qpmax=69 / qpstep=4 / cplxblur=20.0 / qblur=0.5 / ipratio=1.40 / pbratio=1.30
Default                                  : Yes
Forced                                   : No

Audio #1
ID                                       : 2
Format                                   : AAC
Format/Info                              : Advanced Audio Codec
Format profile                           : HE-AAC / LC
Codec ID                                 : A_AAC
Duration                                 : 52 min 5 s
Bit rate                                 : 197 kb/s
Channel(s)                               : 6 channels
Channel positions                        : Front: L C R, Side: L R, LFE
Sampling rate                            : 48.0 kHz / 24.0 kHz
Frame rate                               : 23.438 FPS (1024 spf)
Compression mode                         : Lossy
Delay relative to video                  : 31 ms
Stream size                              : 73.4 MiB (10%)
Language                                 : English
Default                                  : No
Forced                                   : No

Audio #2
ID                                       : 3
Format                                   : AAC
Format/Info                              : Advanced Audio Codec
Format profile                           : HE-AAC / LC
Codec ID                                 : A_AAC
Duration                                 : 52 min 5 s
Bit rate                                 : 83.1 kb/s
Channel(s)                               : 2 channels
Channel positions                        : Front: L R
Sampling rate                            : 48.0 kHz / 24.0 kHz
Frame rate                               : 23.438 FPS (1024 spf)
Compression mode                         : Lossy
Delay relative to video                  : 31 ms
Stream size                              : 31.0 MiB (4%)
Language                                 : French
Default                                  : No
Forced                                   : No

Audio #3
ID                                       : 4
Format                                   : AAC
Format/Info                              : Advanced Audio Codec
Format profile                           : HE-AAC / LC
Codec ID                                 : A_AAC
Duration                                 : 52 min 5 s
Bit rate                                 : 84.6 kb/s
Channel(s)                               : 2 channels
Channel positions                        : Front: L R
Sampling rate                            : 48.0 kHz / 24.0 kHz
Frame rate                               : 23.438 FPS (1024 spf)
Compression mode                         : Lossy
Delay relative to video                  : 31 ms
Stream size                              : 31.5 MiB (4%)
Language                                 : Spanish
Default                                  : No
Forced                                   : No

Subtitle #1
ID                                       : 5
Format                                   : VobSub
Muxing mode                              : zlib
Codec ID                                 : S_VOBSUB
Codec ID/Info                            : Picture based subtitle format used on DVDs
Duration                                 : 50 min 38 s
Bit rate                                 : 6 400 b/s
Count of elements                        : 721
Stream size                              : 2.32 MiB (0%)
Language                                 : English
Default                                  : No
Forced                                   : No

Subtitle #2
ID                                       : 6
Format                                   : VobSub
Muxing mode                              : zlib
Codec ID                                 : S_VOBSUB
Codec ID/Info                            : Picture based subtitle format used on DVDs
Duration                                 : 50 min 21 s
Bit rate                                 : 4 989 b/s
Count of elements                        : 605
Stream size                              : 1.80 MiB (0%)
Language                                 : French
Default                                  : No
Forced                                   : No

Subtitle #3
ID                                       : 7
Format                                   : VobSub
Muxing mode                              : zlib
Codec ID                                 : S_VOBSUB
Codec ID/Info                            : Picture based subtitle format used on DVDs
Duration                                 : 51 min 35 s
Bit rate                                 : 6 270 b/s
Count of elements                        : 699
Stream size                              : 2.31 MiB (0%)
Language                                 : Spanish
Default                                  : No
Forced                                   : No

Subtitle #4
ID                                       : 8
Format                                   : VobSub
Muxing mode                              : zlib
Codec ID                                 : S_VOBSUB
Codec ID/Info                            : Picture based subtitle format used on DVDs
Duration                                 : 50 min 21 s
Bit rate                                 : 6 552 b/s
Count of elements                        : 719
Stream size                              : 2.36 MiB (0%)
Language                                 : Portuguese
Default                                  : No
Forced                                   : No

Subtitle #5
ID                                       : 9
Format                                   : VobSub
Muxing mode                              : zlib
Codec ID                                 : S_VOBSUB
Codec ID/Info                            : Picture based subtitle format used on DVDs
Duration                                 : 50 min 21 s
Bit rate                                 : 5 843 b/s
Count of elements                        : 624
Stream size                              : 2.11 MiB (0%)
Language                                 : Dutch
Default                                  : No
Forced                                   : No

Subtitle #6
ID                                       : 10
Format                                   : VobSub
Muxing mode                              : zlib
Codec ID                                 : S_VOBSUB
Codec ID/Info                            : Picture based subtitle format used on DVDs
Duration                                 : 50 min 21 s
Bit rate                                 : 5 828 b/s
Count of elements                        : 657
Stream size                              : 2.10 MiB (0%)
Language                                 : Danish
Default                                  : No
Forced                                   : No

Subtitle #7
ID                                       : 11
Format                                   : VobSub
Muxing mode                              : zlib
Codec ID                                 : S_VOBSUB
Codec ID/Info                            : Picture based subtitle format used on DVDs
Duration                                 : 50 min 21 s
Bit rate                                 : 5 002 b/s
Count of elements                        : 584
Stream size                              : 1.80 MiB (0%)
Language                                 : Finnish
Default                                  : No
Forced                                   : No

Subtitle #8
ID                                       : 12
Format                                   : VobSub
Muxing mode                              : zlib
Codec ID                                 : S_VOBSUB
Codec ID/Info                            : Picture based subtitle format used on DVDs
Duration                                 : 50 min 21 s
Bit rate                                 : 5 777 b/s
Count of elements                        : 684
Stream size                              : 2.08 MiB (0%)
Language                                 : Norwegian Bokmal
Default                                  : No
Forced                                   : No

Subtitle #9
ID                                       : 13
Format                                   : VobSub
Muxing mode                              : zlib
Codec ID                                 : S_VOBSUB
Codec ID/Info                            : Picture based subtitle format used on DVDs
Duration                                 : 50 min 21 s
Bit rate                                 : 5 623 b/s
Count of elements                        : 681
Stream size                              : 2.03 MiB (0%)
Language                                 : Swedish
Default                                  : No
Forced                                   : No

Menu
00:00:00.000                             : en:Chapter 01
00:05:58.858                             : en:Chapter 02
00:13:45.866                             : en:Chapter 03
00:19:44.016                             : en:Chapter 04
00:25:44.084                             : en:Chapter 05
00:37:45.263                             : en:Chapter 06
00:44:18.739                             : en:Chapter 07
00:50:54.384                             : en:Chapter 08



Source Information


Code:

Release:
Blu-ray Boxed Set in Hand






Note From UTR
We have no issue with individuals posting or re-uploading our torrents on a platform we aren't on. However, if this is something you'd like to do, please do so in a 'as-is' format. We ask that you do not create a new torrent, include all descriptions you see above including the UTR logo, tags, notes and screenshots. If you'd like to become a permanent poster on a website we don't post to, feel free to get in contact with a UniTeam member.




Sharing Widget


No Comments For This Torrent . Be The First to Comment

You must Login to Comment . Click Here to Login

Menu 1

Some content in menu 1.

[RE-UP] True Blood (2008) Season 06 S06 (1080p BluRay x265 HEVC 10bit (Size: 7.8 GB)
  [RE-UP] True Blood (2008) Season 06 S06 (1080p BluRay x265 HEVC 10bit 7.8 GB
tracker name
udp://tracker.leechers-paradise.org:6969/announce
udp://zer0day.ch:1337/announce
udp://open.demonii.com:1337/announce
udp://tracker.coppersurfer.tk:6969/announce
udp://exodus.desync.com:6969/announce
µTorrent compatible trackers list

Relative Torrents

Torrent Name Size Age SEED LEECH
Preacher S03E09 Schwanzkopf 1080p 5 1 - 0 x264 Phun Psyz
Posted by    PhunPsyz   in   TV
758.3 MB 1 minute 442 984
Jallikattu (Karuppan) 2018 Hindi Dubbed EB-HD 720p x264 AAC 1 2GB [HDFilmBoss]
Posted by    HDFilmBoss   in   Movies
1.2 GB 11 minutes 155 146
Fear the Walking Dead S04E10 HDTV x264-SA
Posted by    SeekNDstroy   in   TV
257.5 MB 11 minutes 950 888
Fear the Walking Dead S04E10 720p HDTV x64-AVS
Posted by    SeekNDstroy   in   TV
974.4 MB 11 minutes 413 132
Gorgon City - Escape (2018)
Posted by    Ziggy90   in   Music
106.5 MB 14 minutes 982 439