[RE-UP] True Blood (2008) Season 06 S06 Torrent Free Download

Seeders : 334   &   Leechers : 229      11-08-2018 (2 months)
[RE-UP] True Blood (2008) Season 06 S06 Torrent Download
Added: ago by UTRCorp ***** in TV   11.0 GB   Hits : 27
Info Hash: 0B73807C7F214CAA40416F84FC9E6C1CFAA9CF2E Download
[RE-UP] True Blood (2008) Season 06 S06 Torrent Download

Anonymous and Direct Download movies , software , shows...

Fast Safe Anonymous
movies, software, shows...

Torrent Description










Media Information

Media Information


Code:

General
Format                                   : Matroska
Format version                           : Version 4 / Version 2
File size                                : 1.39 GiB
Duration                                 : 53 min 36 s
Overall bit rate                         : 3 703 kb/s
Movie name                               : True Blood Season 6 Disc 4
Encoded date                             : UTC 2017-02-09 09:34:13
Writing application                      : mkvmerge v9.2.0 ('Photograph') 64bit
Writing library                          : libebml v1.3.3 + libmatroska v1.4.4

Video
ID                                       : 1
Format                                   : HEVC
Format/Info                              : High Efficiency Video Coding
Format profile                           : Main [email protected]@Main
Codec ID                                 : V_MPEGH/ISO/HEVC
Duration                                 : 53 min 36 s
Bit rate                                 : 3 235 kb/s
Width                                    : 1 920 pixels
Height                                   : 1 080 pixels
Display aspect ratio                     : 16:9
Frame rate mode                          : Constant
Frame rate                               : 23.976 (24000/1001) FPS
Color space                              : YUV
Chroma subsampling                       : 4:2:0
Bit depth                                : 10 bits
Bits/(Pixel*Frame)                       : 0.065
Stream size                              : 1.21 GiB (87%)
Writing library                          : x265 2.0+54-e5ca9b210223:[Windows][MSVC 1900][64 bit] 10bit
Encoding settings                        : wpp / ctu=64 / min-cu-size=8 / max-tu-size=32 / tu-intra-depth=1 / tu-inter-depth=1 / me=3 / subme=3 / merange=57 / rect / no-amp / max-merge=3 / temporal-mvp / early-skip / rskip / rdpenalty=0 / no-tskip / no-tskip-fast / strong-intra-smoothing / no-lossless / no-cu-lossless / no-constrained-intra / fast-intra / open-gop / no-temporal-layers / interlace=0 / keyint=250 / min-keyint=23 / scenecut=40 / rc-lookahead=25 / lookahead-slices=4 / bframes=4 / bframe-bias=0 / b-adapt=2 / ref=4 / limit-refs=3 / limit-modes / weightp / no-weightb / aq-mode=3 / qg-size=32 / aq-strength=1.00 / cbqpoffs=0 / crqpoffs=0 / rd=4 / psy-rd=0.00 / rdoq-level=2 / psy-rdoq=0.00 / log2-max-poc-lsb=8 / no-rd-refine / signhide / deblock=0:0 / sao / no-sao-non-deblock / b-pyramid / cutree / no-intra-refresh / rc=crf / crf=22.0 / qcomp=0.60 / qpmin=0 / qpmax=69 / qpstep=4 / vbv-maxrate=4000 / vbv-bufsize=8000 / crf-max=0.0 / ipratio=1.40 / pbratio=1.30
Default                                  : Yes
Forced                                   : No

Audio #1
ID                                       : 2
Format                                   : AAC
Format/Info                              : Advanced Audio Codec
Format profile                           : HE-AAC / LC
Codec ID                                 : A_AAC
Duration                                 : 53 min 36 s
Bit rate                                 : 200 kb/s
Channel(s)                               : 6 channels
Channel positions                        : Front: L C R, Side: L R, LFE
Sampling rate                            : 48.0 kHz / 24.0 kHz
Frame rate                               : 23.438 FPS (1024 spf)
Compression mode                         : Lossy
Delay relative to video                  : 31 ms
Stream size                              : 76.7 MiB (5%)
Language                                 : English
Default                                  : No
Forced                                   : No

Audio #2
ID                                       : 3
Format                                   : AAC
Format/Info                              : Advanced Audio Codec
Format profile                           : HE-AAC / LC
Codec ID                                 : A_AAC
Duration                                 : 53 min 36 s
Bit rate                                 : 85.9 kb/s
Channel(s)                               : 2 channels
Channel positions                        : Front: L R
Sampling rate                            : 48.0 kHz / 24.0 kHz
Frame rate                               : 23.438 FPS (1024 spf)
Compression mode                         : Lossy
Delay relative to video                  : 31 ms
Stream size                              : 32.9 MiB (2%)
Language                                 : French
Default                                  : No
Forced                                   : No

Audio #3
ID                                       : 4
Format                                   : AAC
Format/Info                              : Advanced Audio Codec
Format profile                           : HE-AAC / LC
Codec ID                                 : A_AAC
Duration                                 : 53 min 36 s
Bit rate                                 : 85.2 kb/s
Channel(s)                               : 2 channels
Channel positions                        : Front: L R
Sampling rate                            : 48.0 kHz / 24.0 kHz
Frame rate                               : 23.438 FPS (1024 spf)
Compression mode                         : Lossy
Delay relative to video                  : 31 ms
Stream size                              : 32.7 MiB (2%)
Language                                 : Spanish
Default                                  : No
Forced                                   : No

Audio #4
ID                                       : 5
Format                                   : AAC
Format/Info                              : Advanced Audio Codec
Format profile                           : HE-AAC / LC
Codec ID                                 : A_AAC
Duration                                 : 53 min 36 s
Bit rate                                 : 50.8 kb/s
Channel(s)                               : 2 channels
Channel positions                        : Front: L R
Sampling rate                            : 48.0 kHz / 24.0 kHz
Frame rate                               : 23.438 FPS (1024 spf)
Compression mode                         : Lossy
Delay relative to video                  : 31 ms
Stream size                              : 19.5 MiB (1%)
Title                                    : Commentary
Language                                 : English
Default                                  : No
Forced                                   : No

Subtitle #1
ID                                       : 6
Format                                   : VobSub
Muxing mode                              : zlib
Codec ID                                 : S_VOBSUB
Codec ID/Info                            : Picture based subtitle format used on DVDs
Duration                                 : 52 min 18 s
Bit rate                                 : 5 903 b/s
Count of elements                        : 735
Stream size                              : 2.21 MiB (0%)
Language                                 : English
Default                                  : No
Forced                                   : No

Subtitle #2
ID                                       : 7
Format                                   : VobSub
Muxing mode                              : zlib
Codec ID                                 : S_VOBSUB
Codec ID/Info                            : Picture based subtitle format used on DVDs
Duration                                 : 52 min 9 s
Bit rate                                 : 4 240 b/s
Count of elements                        : 597
Stream size                              : 1.58 MiB (0%)
Language                                 : French
Default                                  : No
Forced                                   : No

Subtitle #3
ID                                       : 8
Format                                   : VobSub
Muxing mode                              : zlib
Codec ID                                 : S_VOBSUB
Codec ID/Info                            : Picture based subtitle format used on DVDs
Duration                                 : 52 min 9 s
Bit rate                                 : 5 200 b/s
Count of elements                        : 648
Stream size                              : 1.94 MiB (0%)
Language                                 : Spanish
Default                                  : No
Forced                                   : No

Subtitle #4
ID                                       : 9
Format                                   : VobSub
Muxing mode                              : zlib
Codec ID                                 : S_VOBSUB
Codec ID/Info                            : Picture based subtitle format used on DVDs
Duration                                 : 52 min 9 s
Bit rate                                 : 5 293 b/s
Count of elements                        : 655
Stream size                              : 1.97 MiB (0%)
Language                                 : Portuguese
Default                                  : No
Forced                                   : No

Subtitle #5
ID                                       : 10
Format                                   : VobSub
Muxing mode                              : zlib
Codec ID                                 : S_VOBSUB
Codec ID/Info                            : Picture based subtitle format used on DVDs
Duration                                 : 52 min 9 s
Bit rate                                 : 4 615 b/s
Count of elements                        : 631
Stream size                              : 1.72 MiB (0%)
Language                                 : Dutch
Default                                  : No
Forced                                   : No

Subtitle #6
ID                                       : 11
Format                                   : VobSub
Muxing mode                              : zlib
Codec ID                                 : S_VOBSUB
Codec ID/Info                            : Picture based subtitle format used on DVDs
Duration                                 : 52 min 9 s
Bit rate                                 : 4 682 b/s
Count of elements                        : 622
Stream size                              : 1.75 MiB (0%)
Language                                 : Danish
Default                                  : No
Forced                                   : No

Subtitle #7
ID                                       : 12
Format                                   : VobSub
Muxing mode                              : zlib
Codec ID                                 : S_VOBSUB
Codec ID/Info                            : Picture based subtitle format used on DVDs
Duration                                 : 52 min 9 s
Bit rate                                 : 4 300 b/s
Count of elements                        : 580
Stream size                              : 1.60 MiB (0%)
Language                                 : Finnish
Default                                  : No
Forced                                   : No

Subtitle #8
ID                                       : 13
Format                                   : VobSub
Muxing mode                              : zlib
Codec ID                                 : S_VOBSUB
Codec ID/Info                            : Picture based subtitle format used on DVDs
Duration                                 : 52 min 9 s
Bit rate                                 : 5 034 b/s
Count of elements                        : 634
Stream size                              : 1.88 MiB (0%)
Language                                 : Norwegian Bokmal
Default                                  : No
Forced                                   : No

Subtitle #9
ID                                       : 14
Format                                   : VobSub
Muxing mode                              : zlib
Codec ID                                 : S_VOBSUB
Codec ID/Info                            : Picture based subtitle format used on DVDs
Duration                                 : 52 min 9 s
Bit rate                                 : 4 772 b/s
Count of elements                        : 634
Stream size                              : 1.78 MiB (0%)
Language                                 : Swedish
Default                                  : No
Forced                                   : No

Menu
00:00:00.000                             : en:Chapter 01
00:03:11.399                             : en:Chapter 02
00:10:54.612                             : en:Chapter 03
00:17:44.772                             : en:Chapter 04
00:24:52.782                             : en:Chapter 05
00:39:55.017                             : en:Chapter 06
00:45:43.490                             : en:Chapter 07
00:52:28.728                             : en:Chapter 08



Source Information


Code:

Release:
Blu-ray Boxed Set in Hand






Note From UTR
We have no issue with individuals posting or re-uploading our torrents on a platform we aren't on. However, if this is something you'd like to do, please do so in a 'as-is' format. We ask that you do not create a new torrent, include all descriptions you see above including the UTR logo, tags, notes and screenshots. If you'd like to become a permanent poster on a website we don't post to, feel free to get in contact with a UniTeam member.




Sharing Widget


No Comments For This Torrent . Be The First to Comment

You must Login to Comment . Click Here to Login

Menu 1

Some content in menu 1.

[RE-UP] True Blood (2008) Season 06 S06 (1080p BluRay x265 HEVC 10bit (Size: 11.0 GB)
  [RE-UP] True Blood (2008) Season 06 S06 (1080p BluRay x265 HEVC 10bit 11.0 GB
tracker name
udp://tracker.leechers-paradise.org:6969/announce
udp://zer0day.ch:1337/announce
udp://open.demonii.com:1337/announce
udp://tracker.coppersurfer.tk:6969/announce
udp://exodus.desync.com:6969/announce
µTorrent compatible trackers list

Relative Torrents

Torrent Name Size Age SEED LEECH
Dead Squad Temple of the Undead 2018 480 WEBRip x264-RMTeam
Posted by    bone111   in   Movies
434.4 MB 3 minutes 314 783
Vår tid är nu S02 E02 - 720p x264 - WE (ENG SUBS) [BRSHNKV]
Posted by    Baryshnikov   in   TV
786.4 MB 8 minutes 303 881
Vår tid är nu S02 E02 - 720p x265 HEC - SWE (ENG SUBS) [BRSHNKV]
Posted by    Baryshnikov   in   TV
576.4 MB 8 minutes 580 692
Internet Manager (IDM) 6 31 Build 9 + Crck [CracksNow]
Posted by    cracksnow   in   Applications
7.3 MB 8 minutes 455 710
EastEnders 22nd Oct 2018 1080p (Deep61) WWRG]
Posted by    Deep61   in   TV
642.2 MB 13 minutes 188 311