[RE-UP] True Blood (2008) Season 07 S07 Torrent Free Download

Seeders : 520   &   Leechers : 739      11-08-2018 (4 months)
[RE-UP] True Blood (2008) Season 07 S07 Torrent Download
Added: ago by UTRCorp ***** in TV   11.6 GB   Hits : 27
Info Hash: 0391B74EA45314055729838F61BBDE1FC3A88B5A Download
[RE-UP] True Blood (2008) Season 07 S07 Torrent Download

Anonymous and Direct Download movies , software , shows...

Fast Safe Anonymous
movies, software, shows...

Torrent Description










Media Information

Media Information


Code:

General
Format                                   : Matroska
Format version                           : Version 4 / Version 2
File size                                : 877 MiB
Duration                                 : 50 min 43 s
Overall bit rate                         : 2 416 kb/s
Movie name                               : True Blood Season 7 Disc 1
Encoded date                             : UTC 2017-02-06 07:47:52
Writing application                      : mkvmerge v9.2.0 ('Photograph') 64bit
Writing library                          : libebml v1.3.3 + libmatroska v1.4.4

Video
ID                                       : 1
Format                                   : HEVC
Format/Info                              : High Efficiency Video Coding
Format profile                           : Main [email protected]@Main
Codec ID                                 : V_MPEGH/ISO/HEVC
Duration                                 : 50 min 43 s
Bit rate                                 : 2 091 kb/s
Width                                    : 1 920 pixels
Height                                   : 1 080 pixels
Display aspect ratio                     : 16:9
Frame rate mode                          : Constant
Frame rate                               : 23.976 (24000/1001) FPS
Color space                              : YUV
Chroma subsampling                       : 4:2:0
Bit depth                                : 10 bits
Bits/(Pixel*Frame)                       : 0.042
Stream size                              : 759 MiB (87%)
Writing library                          : x265 2.0+54-e5ca9b210223:[Windows][MSVC 1900][64 bit] 10bit
Encoding settings                        : wpp / ctu=64 / min-cu-size=8 / max-tu-size=32 / tu-intra-depth=1 / tu-inter-depth=1 / me=3 / subme=3 / merange=57 / rect / no-amp / max-merge=3 / temporal-mvp / early-skip / rskip / rdpenalty=0 / no-tskip / no-tskip-fast / strong-intra-smoothing / no-lossless / no-cu-lossless / no-constrained-intra / fast-intra / open-gop / no-temporal-layers / interlace=0 / keyint=250 / min-keyint=23 / scenecut=40 / rc-lookahead=25 / lookahead-slices=4 / bframes=4 / bframe-bias=0 / b-adapt=2 / ref=4 / limit-refs=3 / limit-modes / weightp / no-weightb / aq-mode=3 / qg-size=32 / aq-strength=1.00 / cbqpoffs=0 / crqpoffs=0 / rd=4 / psy-rd=0.00 / rdoq-level=2 / psy-rdoq=0.00 / log2-max-poc-lsb=8 / no-rd-refine / signhide / deblock=0:0 / sao / no-sao-non-deblock / b-pyramid / cutree / no-intra-refresh / rc=crf / crf=22.0 / qcomp=0.60 / qpmin=0 / qpmax=69 / qpstep=4 / vbv-maxrate=4000 / vbv-bufsize=8000 / crf-max=0.0 / ipratio=1.40 / pbratio=1.30
Default                                  : Yes
Forced                                   : No

Audio #1
ID                                       : 2
Format                                   : AAC
Format/Info                              : Advanced Audio Codec
Format profile                           : HE-AAC / LC
Codec ID                                 : A_AAC
Duration                                 : 50 min 43 s
Bit rate                                 : 198 kb/s
Channel(s)                               : 6 channels
Channel positions                        : Front: L C R, Side: L R, LFE
Sampling rate                            : 48.0 kHz / 24.0 kHz
Frame rate                               : 23.438 FPS (1024 spf)
Compression mode                         : Lossy
Delay relative to video                  : 31 ms
Stream size                              : 71.8 MiB (8%)
Language                                 : English
Default                                  : No
Forced                                   : No

Audio #2
ID                                       : 3
Format                                   : AAC
Format/Info                              : Advanced Audio Codec
Format profile                           : HE-AAC / LC
Codec ID                                 : A_AAC
Duration                                 : 50 min 43 s
Bit rate                                 : 84.5 kb/s
Channel(s)                               : 2 channels
Channel positions                        : Front: L R
Sampling rate                            : 48.0 kHz / 24.0 kHz
Frame rate                               : 23.438 FPS (1024 spf)
Compression mode                         : Lossy
Delay relative to video                  : 31 ms
Stream size                              : 30.7 MiB (3%)
Language                                 : Spanish
Default                                  : No
Forced                                   : No

Subtitle #1
ID                                       : 4
Format                                   : VobSub
Muxing mode                              : zlib
Codec ID                                 : S_VOBSUB
Codec ID/Info                            : Picture based subtitle format used on DVDs
Duration                                 : 49 min 15 s
Bit rate                                 : 6 130 b/s
Count of elements                        : 644
Stream size                              : 2.16 MiB (0%)
Language                                 : English
Default                                  : No
Forced                                   : No

Subtitle #2
ID                                       : 5
Format                                   : VobSub
Muxing mode                              : zlib
Codec ID                                 : S_VOBSUB
Codec ID/Info                            : Picture based subtitle format used on DVDs
Duration                                 : 37 s 750 ms
Bit rate                                 : 1 527 b/s
Count of elements                        : 2
Stream size                              : 7.04 KiB (0%)
Language                                 : English
Default                                  : No
Forced                                   : Yes

Subtitle #3
ID                                       : 6
Format                                   : VobSub
Muxing mode                              : zlib
Codec ID                                 : S_VOBSUB
Codec ID/Info                            : Picture based subtitle format used on DVDs
Duration                                 : 37 s 777 ms
Bit rate                                 : 1 512 b/s
Count of elements                        : 2
Stream size                              : 6.98 KiB (0%)
Language                                 : English
Default                                  : No
Forced                                   : No

Subtitle #4
ID                                       : 7
Format                                   : VobSub
Muxing mode                              : zlib
Codec ID                                 : S_VOBSUB
Codec ID/Info                            : Picture based subtitle format used on DVDs
Duration                                 : 49 min 4 s
Bit rate                                 : 5 254 b/s
Count of elements                        : 574
Stream size                              : 1.84 MiB (0%)
Language                                 : Spanish
Default                                  : No
Forced                                   : No

Subtitle #5
ID                                       : 8
Format                                   : VobSub
Muxing mode                              : zlib
Codec ID                                 : S_VOBSUB
Codec ID/Info                            : Picture based subtitle format used on DVDs
Duration                                 : 49 min 4 s
Bit rate                                 : 5 664 b/s
Count of elements                        : 575
Stream size                              : 1.99 MiB (0%)
Language                                 : Portuguese
Default                                  : No
Forced                                   : No

Subtitle #6
ID                                       : 9
Format                                   : VobSub
Muxing mode                              : zlib
Codec ID                                 : S_VOBSUB
Codec ID/Info                            : Picture based subtitle format used on DVDs
Duration                                 : 49 min 4 s
Bit rate                                 : 5 034 b/s
Count of elements                        : 570
Stream size                              : 1.77 MiB (0%)
Language                                 : Dutch
Default                                  : No
Forced                                   : No

Subtitle #7
ID                                       : 10
Format                                   : VobSub
Muxing mode                              : zlib
Codec ID                                 : S_VOBSUB
Codec ID/Info                            : Picture based subtitle format used on DVDs
Duration                                 : 49 min 4 s
Bit rate                                 : 4 498 b/s
Count of elements                        : 569
Stream size                              : 1.58 MiB (0%)
Language                                 : Danish
Default                                  : No
Forced                                   : No

Subtitle #8
ID                                       : 11
Format                                   : VobSub
Muxing mode                              : zlib
Codec ID                                 : S_VOBSUB
Codec ID/Info                            : Picture based subtitle format used on DVDs
Duration                                 : 49 min 4 s
Bit rate                                 : 4 868 b/s
Count of elements                        : 569
Stream size                              : 1.71 MiB (0%)
Language                                 : Finnish
Default                                  : No
Forced                                   : No

Subtitle #9
ID                                       : 12
Format                                   : VobSub
Muxing mode                              : zlib
Codec ID                                 : S_VOBSUB
Codec ID/Info                            : Picture based subtitle format used on DVDs
Duration                                 : 49 min 4 s
Bit rate                                 : 5 058 b/s
Count of elements                        : 572
Stream size                              : 1.78 MiB (0%)
Language                                 : Norwegian Bokmal
Default                                  : No
Forced                                   : No

Subtitle #10
ID                                       : 13
Format                                   : VobSub
Muxing mode                              : zlib
Codec ID                                 : S_VOBSUB
Codec ID/Info                            : Picture based subtitle format used on DVDs
Duration                                 : 49 min 4 s
Bit rate                                 : 4 744 b/s
Count of elements                        : 571
Stream size                              : 1.67 MiB (0%)
Language                                 : Swedish
Default                                  : No
Forced                                   : No

Menu
00:00:00.000                             : en:Chapter 01
00:04:34.440                             : en:Chapter 02
00:11:28.020                             : en:Chapter 03
00:19:51.481                             : en:Chapter 04
00:27:14.007                             : en:Chapter 05
00:35:40.221                             : en:Chapter 06
00:44:02.598                             : en:Chapter 07
00:49:26.254                             : en:Chapter 08



Source Information


Code:

Release:
Blu-ray Boxed Set in Hand






Note From UTR
We have no issue with individuals posting or re-uploading our torrents on a platform we aren't on. However, if this is something you'd like to do, please do so in a 'as-is' format. We ask that you do not create a new torrent, include all descriptions you see above including the UTR logo, tags, notes and screenshots. If you'd like to become a permanent poster on a website we don't post to, feel free to get in contact with a UniTeam member.




Sharing Widget


No Comments For This Torrent . Be The First to Comment

You must Login to Comment . Click Here to Login

Menu 1

Some content in menu 1.

[RE-UP] True Blood (2008) Season 07 S07 (1080p BluRay x265 HEVC 10bit (Size: 11.6 GB)
  [RE-UP] True Blood (2008) Season 07 S07 (1080p BluRay x265 HEVC 10bit 11.6 GB
tracker name
udp://tracker.leechers-paradise.org:6969/announce
udp://zer0day.ch:1337/announce
udp://open.demonii.com:1337/announce
udp://tracker.coppersurfer.tk:6969/announce
udp://exodus.desync.com:6969/announce
µTorrent compatible trackers list

Relative Torrents

Torrent Name Size Age SEED LEECH
White Boy Rick (2018) [WEBRip] [1080p] [TS] [YIFY]
Posted by    YTSAGx   in   Movies
1.8 GB 3 minutes 509 631
First Lady (2018) [WEBRip] [1080p] [YTS][YIFY]
Posted by    YTSAGx   in   Movies
1.5 GB 15 minutes 526 389
Il mio nome è Thomas - My Name Is Thoma (2018) 720p H264 italian ger Ac3-5 1-M
Posted by    robbyrs   in   Movies
1.6 GB 15 minutes 289 930
Hand of Fate 2 A Cold Hearth-PLAZA
Posted by    IGGGAMESCOM   in   Games
3.9 GB 15 minutes 764 393
Despicable Me Trilogy (2010-2017) HDRi - SHADOW[TGx]
Posted by    mazemaze16   in   Movies
1.0 GB 24 minutes 974 507