Skyscraper (2018) 720p HDRip HQ Clean Au Torrent Free Download

Seeders : 418   &   Leechers : 776      10-08-2018 (2 months)
Skyscraper (2018) 720p HDRip HQ Clean Au Torrent Download
Added: ago by ictv ***** in Movies   1.1 GB   Hits : 46
Info Hash: BF7A292FBED94D10FF06A6BB28CB946027BBF93A Download
Skyscraper (2018) 720p HDRip HQ Clean Au Torrent Download

Anonymous and Direct Download movies , software , shows...

Fast Safe Anonymous
movies, software, shows...
Skyscraper
Action /Thriller  .   102 min   5.9/10
Director : Rawson Marshall Thurber  
Tags: Skyscraper  (2018)  720p  HDRip  HQ  Clean  

Released:
13 Jul 2018
A security expert must infiltrate a burning skyscraper, 225 stories above ground, when his family are trapped inside by criminals.

Torrent Description



Bookmark Our Site For Exclusives www.movcr.com


Skyscraper (2018) 720p HDRip HQ Clean Audios [Hindi+Telugu+Tamil+English] - [MovCr]


https://www.imdb.com/title/tt5758778/



General
Unique ID : 259584618246569611911761111524801093697 (0xC34A2DCEE72D4BDD237495A983F5A041)
Complete name : [www.MovCr.com] Skyscraper (2018) 720p HDRip HQ Clean Audios [Hindi+Telugu+Tamil+English] - MovCr]\www.MovCr.com - Skyscraper (2018) 720p HDRip HQ Clean Audios [Hindi+Telugu+Tamil+English] - 1.2GB MovCr].mkv
Format : Matroska
Format version : Version 4 / Version 2
File size : 1.14 GiB
Duration : 1 h 42 min
Overall bit rate mode : Variable
Overall bit rate : 1 587 kb/s
Movie name : www.MovCr.com
Encoded date : UTC 2018-08-10 17:07:23
Writing application : mkvmerge v23.0.0 ('The Bride Said No') 64-bit
Writing library : libebml v1.3.6 + libmatroska v1.4.9

Video
ID : 1
Format : AVC
Format/Info : Advanced Video Codec
Format profile : [email protected]
Format settings : CABAC / 2 Ref Frames
Format settings, CABAC : Yes
Format settings, RefFrames : 2 frames
Format settings, GOP : M=1, N=25
Codec ID : V_MPEG4/ISO/AVC
Duration : 1 h 42 min
Bit rate : 1 125 kb/s
Width : 1 280 pixels
Height : 544 pixels
Display aspect ratio : 2.35:1
Frame rate mode : Constant
Frame rate : 30.000 FPS
Color space : YUV
Chroma subsampling : 4:2:0
Bit depth : 8 bits
Scan type : Progressive
Bits/(Pixel*Frame) : 0.054
Stream size : 824 MiB (71%)
Title : www.MovCr.com
Default : Yes
Forced : No

Audio #1
ID : 2
Format : AAC
Format/Info : Advanced Audio Codec
Format profile : LC
Codec ID : A_AAC-2
Duration : 1 h 42 min
Bit rate : 196 kb/s
Channel(s) : 2 channels
Channel positions : Front: L R
Sampling rate : 48.0 kHz
Frame rate : 46.875 FPS (1024 SPF)
Compression mode : Lossy
Stream size : 144 MiB (12%)
Title : www.MovCr.com
Language : English
Default : No
Forced : No

Audio #2
ID : 3
Format : MPEG Audio
Format version : Version 2
Format profile : Layer 3
Format settings : Joint stereo / MS Stereo
Codec ID : A_MPEG/L3
Codec ID/Hint : MP3
Duration : 1 h 42 min
Bit rate mode : Variable
Bit rate : 91.0 kb/s
Nominal bit rate : 96.0 kb/s
Channel(s) : 2 channels
Sampling rate : 16.0 kHz
Frame rate : 27.778 FPS (576 SPF)
Compression mode : Lossy
Stream size : 66.7 MiB (6%)
Title : www.MovCr.com
Writing library : LAME3.99r
Encoding settings : -m j -V 4 -q 3 -lowpass 8 --abr 96
Language : Telugu
Default : No
Forced : No

Audio #3
ID : 4
Format : MPEG Audio
Format version : Version 1
Format profile : Layer 3
Format settings : Joint stereo / MS Stereo
Codec ID : A_MPEG/L3
Codec ID/Hint : MP3
Duration : 1 h 42 min
Bit rate mode : Variable
Bit rate : 84.5 kb/s
Nominal bit rate : 96.0 kb/s
Channel(s) : 2 channels
Sampling rate : 44.1 kHz
Frame rate : 38.281 FPS (1152 SPF)
Compression mode : Lossy
Stream size : 61.9 MiB (5%)
Title : www.MovCr.com
Writing library : LAME3.99r
Encoding settings : -m j -V 4 -q 3 -lowpass 15.1 --abr 96
Language : Tamil
Default : No
Forced : No

Audio #4
ID : 5
Format : MPEG Audio
Format version : Version 2
Format profile : Layer 3
Format settings : Joint stereo / MS Stereo
Codec ID : A_MPEG/L3
Codec ID/Hint : MP3
Duration : 1 h 42 min
Bit rate mode : Variable
Bit rate : 86.1 kb/s
Nominal bit rate : 96.0 kb/s
Channel(s) : 2 channels
Sampling rate : 16.0 kHz
Frame rate : 27.778 FPS (576 SPF)
Compression mode : Lossy
Stream size : 63.1 MiB (5%)
Title : www.MovCr.com
Writing library : LAME3.99r
Encoding settings : -m j -V 4 -q 3 -lowpass 8 --abr 96
Language : Hindi
Default : Yes
Forced : Yes














Sharing Widget


No Comments For This Torrent . Be The First to Comment

You must Login to Comment . Click Here to Login

Menu 1

Some content in menu 1.

Skyscraper (2018) 720p HDRip HQ Clean Audios [Hindi+Telugu+Tamil+Engli (Size: 1.1 GB)
  Skyscraper (2018) 720p HDRip HQ Clean Audios [Hindi+Telugu+Tamil+Engli 1.1 GB
tracker name
udp://tracker.leechers-paradise.org:6969/announce
udp://zer0day.ch:1337/announce
udp://open.demonii.com:1337/announce
udp://tracker.coppersurfer.tk:6969/announce
udp://exodus.desync.com:6969/announce
µTorrent compatible trackers list

Relative Torrents

Torrent Name Size Age SEED LEECH
Wolves and Warriors S01E08 Protect the Pck 720p WEBRip x264-CAFFEiNE[TGx]
Posted by    mazemaze16   in   TV
1.5 GB 3 minutes 57 765
Halloween III Season of the Witch 1982 70p BluRay H264 AAC
Posted by    Trige   in   Movies
1.2 GB 7 minutes 661 436
Madelines Madeline 2018 Movies HDRip x26 5 1 with Sample ☻rDX☻
Posted by    nehalpuja   in   Movies
914.0 MB 10 minutes 631 434
Shaun Micallefs Mad As Hell S09E05 720p DTV x264-CBFM [eztv]
Posted by    EZTVag   in   TV
690.4 MB 13 minutes 880 507
Madelines Madeline 2018 Movies HDRip x26 AAC with Sample ☻rDX☻
Posted by    nehalpuja   in   Movies
705.7 MB 22 minutes 938 579