The Meg (2018) 720p HDCAM [Dual Audio]-[ Torrent Free Download

Seeders : 352   &   Leechers : 359      11-08-2018 (2 months)
The Meg (2018) 720p HDCAM [Dual Audio]-[ Torrent Download
Added: ago by ictv ***** in Movies   791.8 MB   Hits : 31
Info Hash: 5C7DE710D54898CEF0674C424F605EC2695A4241 Download
The Meg (2018) 720p HDCAM [Dual Audio]-[ Torrent Download

Anonymous and Direct Download movies , software , shows...

Fast Safe Anonymous
movies, software, shows...
The Meg
Action /Horror /Sci-Fi  .   113 min   6.0/10
Director : Jon Turteltaub  
Tags: The  Meg  (2018)  720p  HDCAM  [Dual  

Released:
10 Aug 2018
Five years ago, expert sea diver and Naval Captain Jonas Taylor encountered an unknown danger in the unexplored recesses of the Mariana Trench that forced him to abort his mission and abandon half his crew. Though the tragic incident earned him a dishonorable disch.... See More arge, what ultimately cost him his career, his marriage and any semblance of honor was his unsupported and incredulous claims of what caused it - an attack on his vessel by a mammoth, 70-foot sea creature, believed to be extinct for more than a million years. But when a submersible lies sunk and disabled at the bottom of the ocean - carrying his ex-wife among the team onboard - he is the one who gets the call. Whether a shot at redemption or a suicide mission, Jonas must confront his fears and risk his own life and the lives of everyone trapped below on a single question: Could the Carcharodon Megalodon - the largest marine predator that ever existed - still be alive ... and on the hunt?

Torrent Description



Visit Our Site www.movcr.com


The Meg (2018) 720p HDCAM [Dual Audio]-[Hindi (Clean) + English] 800MB - MovCr


https://www.imdb.com/title/tt4779682/



General
Unique ID : 44941450727512336536318634792353108847 (0x21CF68980BAD5DA36B99D901CEA9936F)
Complete name : www.MovCr.com - The Meg (2018) 720p HDCAM [Dual Audio]-[Hindi (Clean) + English] 800MB - MovCr.mkv
Format : Matroska
Format version : Version 4 / Version 2
File size : 792 MiB
Duration : 1 h 43 min
Overall bit rate : 1 067 kb/s
Movie name : www.MovCr.com
Encoded date : UTC 2018-08-10 20:14:45
Writing application : mkvmerge v23.0.0 ('The Bride Said No') 64-bit
Writing library : libebml v1.3.6 + libmatroska v1.4.9

Video
ID : 1
Format : AVC
Format/Info : Advanced Video Codec
Format profile : [email protected]
Format settings : CABAC / 4 Ref Frames
Format settings, CABAC : Yes
Format settings, RefFrames : 4 frames
Codec ID : V_MPEG4/ISO/AVC
Duration : 1 h 43 min
Bit rate : 862 kb/s
Width : 1 280 pixels
Height : 528 pixels
Display aspect ratio : 2.40:1
Frame rate mode : Constant
Frame rate : 29.970 (30000/1001) FPS
Color space : YUV
Chroma subsampling : 4:2:0
Bit depth : 8 bits
Scan type : Progressive
Bits/(Pixel*Frame) : 0.043
Stream size : 640 MiB (81%)
Title : www.MovCr.com
Writing library : x264 core 155 r2901 7d0ff22
Encoding settings : cabac=1 / ref=3 / deblock=1:0:0 / analyse=0x3:0x113 / me=hex / subme=7 / psy=1 / psy_rd=1.00:0.00 / mixed_ref=1 / me_range=16 / chroma_me=1 / trellis=1 / 8x8dct=1 / cqm=0 / deadzone=21,11 / fast_pskip=1 / chroma_qp_offset=-2 / threads=16 / lookahead_threads=2 / sliced_threads=0 / nr=0 / decimate=1 / interlaced=0 / bluray_compat=0 / constrained_intra=0 / bframes=3 / b_pyramid=2 / b_adapt=1 / b_bias=0 / direct=1 / weightb=1 / open_gop=0 / weightp=2 / keyint=300 / keyint_min=29 / scenecut=40 / intra_refresh=0 / rc_lookahead=40 / rc=2pass / mbtree=1 / bitrate=862 / ratetol=1.0 / qcomp=0.60 / qpmin=0 / qpmax=69 / qpstep=4 / cplxblur=20.0 / qblur=0.5 / ip_ratio=1.40 / aq=1:1.00
Language : English
Default : Yes
Forced : No

Audio #1
ID : 2
Format : AAC
Format/Info : Advanced Audio Codec
Format profile : LC
Codec ID : A_AAC-2
Duration : 1 h 43 min
Bit rate : 42.4 kb/s
Channel(s) : 2 channels
Channel positions : Front: L R
Sampling rate : 48.0 kHz
Frame rate : 46.875 FPS (1024 SPF)
Compression mode : Lossy
Delay relative to video : -21 ms
Stream size : 31.4 MiB (4%)
Title : www.MovCr.com
Language : English
Default : Yes
Forced : No

Audio #2
ID : 3
Format : MPEG Audio
Format version : Version 1
Format profile : Layer 3
Format settings : Joint stereo / MS Stereo
Codec ID : A_MPEG/L3
Codec ID/Hint : MP3
Duration : 1 h 43 min
Bit rate mode : Constant
Bit rate : 160 kb/s
Channel(s) : 2 channels
Sampling rate : 48.0 kHz
Frame rate : 41.667 FPS (1152 SPF)
Compression mode : Lossy
Delay relative to video : -21 ms
Stream size : 119 MiB (15%)
Title : www.MovCr.com
Writing library : LAME3.98.2
Language : Hindi
Default : No
Forced : Yes










Sharing Widget


No Comments For This Torrent . Be The First to Comment

You must Login to Comment . Click Here to Login

Menu 1

Some content in menu 1.

The Meg (2018) 720p HDCAM [Dual Audio]-[Hindi (Clean) + English] 800MB (Size: 791.8 MB)
  The Meg (2018) 720p HDCAM [Dual Audio]-[Hindi (Clean) + English] 800MB 791.8 MB
tracker name
udp://tracker.leechers-paradise.org:6969/announce
udp://zer0day.ch:1337/announce
udp://open.demonii.com:1337/announce
udp://tracker.coppersurfer.tk:6969/announce
udp://exodus.desync.com:6969/announce
µTorrent compatible trackers list

Relative Torrents

Torrent Name Size Age SEED LEECH
The Conners S01E01 1080p WEB H264-MEMENT[TGx]
Posted by    mazemaze16   in   TV
785.1 MB 6 minutes 374 923
Pointless Celebrities S11E15 720p WEB h24-KOMPOST [eztv]
Posted by    EZTVag   in   TV
1.5 GB 6 minutes 210 632
Power Rangers S25E18 Monster Mix-Up 720pNICK WEB-DL AAC2 0 H 264 [eztv]
Posted by    EZTVag   in   TV
488.4 MB 11 minutes 511 773
The Conners S01E01 1080p WEB H264-MEMENT
Posted by    Trige   in   TV
777.9 MB 11 minutes 792 459
Shameless US S09E07 Down Like The Titani 1080p AMZN WEBRip DDP5 1 x264-NTb
Posted by    Trige   in   TV
3.6 GB 11 minutes 864 686